Hollywood Dual audio PC Full HD 720p 1080p Hindi Dubbed 300mb Khatrimaza Porn Video 18+ 100mb 200mb hevc Brazzers Xvideos Porn Hub Desi animal sex Sunny Leon New Porn Full Movies HEVC 100mb Collection List atoz A To Z To A
Free Direct Download Movies For PC mobile movies :br we only provide high quality movies with direct links PC Movies AVI, MKV Formate A - Z Most Popular Hindi Bengali Action Dubbed Drama Thriller Crime Comedy Romance BluRay Movie upgrade Latest Added Movies New 3D Movies Downloads
!! Get Free Access to Porn Sites Like Brazzer !! !! 100% free !!
Download Timepass [2014] Marathi Movies New Free Download [DVDRipRip] 650MB MKV
General Format : AVI File size : 700 MiB Duration : 2h 28mn Overall bit rate : 661 KbpsVideo Format : MPEG-4 Visual Duration : 2h 28mn Bit rate : 616 Kbps Width : 640 pixels Height : 272pixels Display aspect ratio : 2.35:1 Frame rate : 24.000 fps Stream size: 652 MiB (93%)Audio Format : MP3 Duration : 2h 28mn Bit rate : 40 Kbps Channel count : 2 channels Stream size : 42.4 MiB (6%) Language : Marathi
Timepass [2014] Marathi Movies New Free Download [DVDRipRip] 650MB MKV
How To Hack Android Apk Games Coin Gold Money Glue Level Tut
Home |
Back |
Top ▲
35779787
1003
Dual Audio Hollywood PC Hindi Dubbed Movies MKV 300mb 480p 720p 1080p
Movie4android Full HD Free Download A To Z Bollywood Hollywood South Dual Audio Movies HEVC,3GP,MP4,AVI,MKV,3D,4K,Ultra 4K,
Disclaimer:- All My Post are Free Available On INTERNET Posted By Somebody Else,I'm Not VIOLATING Any COPYRIGHTED LAW. If Anything Is Against LAW, Please Notify Me So That It Can Be Removed Conect Me Movie4android.com@gmail.com

:=:

Download Bollywood full movie for free
Download Android Game for Free